Torrent File Download

Furry Vengeance

Furry Vengeance
Download direct - no client needed
Size
654.2 MB in files
Added
09-05-2010
Status
0 seeds 0 leechers
Downloads
2063 downloads
Hash
b0e77ffee4318bd5867b2dba993122bd5021a691
Rapidshare
This file may be available for download on rapidshare, megaupload, hotfile.
More
furry vengeance torrents
Privacy
Avoid Lawsuits! Get Bittorrent Guardian.
Uploader
Unknown
Rating
rating
Download Torrent Furry Vengeance.torrent Magnet Download For Alternative Torrent Clients Download Direct Furry Vengeance

Files

Name

Size

  • Furry.Vengeance.2010.CAM.XviD-TA.avi 654.2 MB

Description

Furry.Vengeance.2010.CAM.XviD-TA <a href=" http://www.imdb.com/title/tt0492389/" rel="nofollow"> http://www.imdb.com/title/tt0492389/</a> Plot: In the Oregon wilderness, a real estate developer's new housing subdivision faces a unique group of protesters, local woodland creatures who don't want their homes disturbed. Source :Our Own (Thanks SLUGGER) General Complete name : Furry.Vengeance.2010.CAM.XviD-TA.avi Format : AVI Format/Info : Audio Video Interleave File size : 654 MiB Duration : 1h 12mn Overall bit rate : 1 266 Kbps Writing library : VirtualDub build 32661/release Video ID : 0 Format : MPEG-4 Visual Format profile : AdvancedSimple@L5 Format settings, BVOP : Yes Format settings, QPel : No Format settings, GMC : No warppoints Format settings, Matrix : Default (H.263) Muxing mode : Packed bitstream Codec ID : XVID Codec ID/Hint : XviD Duration : 1h 12mn Bit rate : 1 094 Kbps Width : 480 pixels Height : 320 pixels Display aspect ratio : 1.500 Frame rate : 30.000 fps Resolution : 24 bits Colorimetry : 4:2:0 Scan type : Progressive Bits/(Pixel*Frame) : 0.237 Stream size : 565 MiB (86%) Writing library : XviD 1.2.1 (UTC 2008-12-04) Audio ID : 1 Format : MPEG Audio Format version : Version 1 Format profile : Layer 3 Codec ID : 55 Codec ID/Hint : MP3 Duration : 1h 12mn Bit rate mode : Constant Bit rate : 160 Kbps Channel(s) : 2 channels Sampling rate : 44.1 KHz Resolution : 16 bits Stream size : 82.7 MiB (13%) Alignment : Split accross interleaves Interleave, duration : 33 ms (1.00 video frame) Interleave, preload duration : 500 ms Writing library : LAME3.97 Notes: Did all we could with this one. the source is very distorted. We did out best to chop it up and straighten it out before putting it back together, fixing the ar cropping it. Screens: Enjoy, TA-rg [b]Downloaded from TRACKERACCESS.ORG[/b]

Full Description

Trackers

ID

Tracker

Seeds

Peers

Comments (
2
)

It's better if you log in or register before you leave a comment.

  • Guest
    - posted 2010-09-26 12:09:59

    BIEN JOUER SA FAIS PLAISIR DE VOIR UN Telle filme comique

  • Guest
    - posted 2010-10-31 09:10:04

    dua ta shoh kete filem


Leave a Comment

To verify that you are a human, please fill in the captcha below.