Torrent File Download

We Bought A Zoo (2012) DVD-Rip

We Bought A Zoo (2012) DVD-Rip
Download direct - no client needed
Size
807 MB in files
Added
12-04-2012
Status
0 seeds 0 leechers
Downloads
7 downloads
Hash
581d71e5082244d3d8e554ff7a1c0e9b286f951f
Rapidshare
This file may be available for download on rapidshare, megaupload, hotfile.
More
we bought a zoo 2012 torrents
Privacy
Avoid Lawsuits! Get Bittorrent Guardian.
Uploader
bernardine
Rating
rating
Download Torrent We Bought A Zoo (2012) DVD-Rip.torrent Magnet Download For Alternative Torrent Clients Download Direct We Bought A Zoo (2012) DVD-Rip

Files

Name

Size

  • First Read This Guide.txt 472 Byte
  • password.txt 312 B
  • Rob.Dyrdeks.Fantasy.Factory.S05E07.Im.Livin.it.480p.WEB-DL.x264-mSD.mkv 166.77 MB
  • Rob.Dyrdeks.Fantasy.Factory.S05E07.Im.Livin.it.480p.WEB-DL.x264-mSD.nfo 1.09 KB
  • We Bought A Zoo (2012) DVD-Rip.rar 807 MB
  • www.Torrentday.com.txt 472 Byte

Description

------------------------------------------------------------------- Please share....Dont hit and run...Seed it back at least once. Of course, if you want to seed it back more than once, that would be ok too :) ------------------------------------------------------------------- QUALITY: PERFECT 10/10 All details are here: Format | AVI Language | ENGLISH Source | DVD PAL Subs | NONE QUALITY: PERFECT 10/10 - Video ID : 0 Format : MPEG-4 Visual Format profile : Advanced Simple@L5 Format settings, BVOP : Yes Format settings, QPel : No Format settings, GMC : No warppoints Format settings, Matrix : Default (H.263) Muxing mode : Packed bitstream Codec ID : XVID Codec ID/Hint : XviD Bit rate : 1 345 Kbps Width : 720 pixels Height : 314 pixels Display aspect ratio : 2.25:1 Frame rate : 29.970 fps Color space : YUV Chroma subsampling : 4:2:0 Bit depth : 8 bits Scan type : Progressive Compression mode : Lossy Bits/(Pixel*Frame) : 0.198 Stream size : 1.19 GiB (87%) Writing library : XviD 1.1.0 (UTC 2005-11-22) - Audio ID : 1 Format : AC-3 Format/Info : Audio Coding 3 Mode extension : CM (complete main) Codec ID : 2000 Bit rate mode : Constant Bit rate : 192 Kbps Channel(s) : 2 channels Channel positions : Front: L R Sampling rate : 48.0 KHz Bit depth : 16 bits Compression mode : Lossy Stream size : 175 MiB (12%) Alignment : Aligned on interleaves Interleave, duration : 33 ms (1.00 video frame) Interleave, preload duration : 512 ms - Greets Greets to | X | Joshua08 | IMAGiNE | PrisM | DiGiTAL iNK | ------------------------------------------------------------------- Please share....Dont hit and run...Seed it back at least once. Of course, if you want to seed it back more than once, that would be ok too :) ------------------------------------------------------------------- ------------------------------------------------------------------- Please share....Dont hit and run...Seed it back at least once. Of course, if you want to seed it back more than once, that would be ok too :) ------------------------------------------------------------------- - Notes Im looking for anybody who Wants to Supply Direct or Line Audio. Pre Released R5s, Screeners, NTSC or PAL Pre Retail DVDs or Anything else Usefull ENJOY THE SHOW! As usual, its a perfect quality release from us! 10/10 VIDEO QUALITY : 10/10 AUDIO QUALITY : 10/10 PIRATES ROCK! -------------------------------------------------------------------------

Full Description

Trackers

ID

Tracker

Seeds

Peers

Comments (
0
)

It's better if you log in or register before you leave a comment.


Leave a Comment

To verify that you are a human, please fill in the captcha below.