Torrent File Download

American Reunion (2012) DVDRip XviD-MAXSPEED

American Reunion (2012) DVDRip XviD-MAXSPEED
Download direct - no client needed
Size
881.9 MB in files
Added
09-04-2012
Status
0 seeds 0 leechers
Downloads
1 downloads
Hash
609058994f6d5b6e2a14422dc76ae4eb4db2f723
Rapidshare
This file may be available for download on rapidshare, megaupload, hotfile.
More
american reunion 2012 torrents
Privacy
Avoid Lawsuits! Get Bittorrent Guardian.
Uploader
cooling90
Rating
rating
Download Torrent American Reunion (2012) DVDRip XviD-MAXSPEED.torrent Magnet Download For Alternative Torrent Clients Download Direct American Reunion (2012) DVDRip XviD-MAXSPEED

Files

Name

Size

  • American Reunion (2012) DVDRip XviD-MAXSPEED.avi 881.9 MB
  • La.Maldicion.De.Dark.Lake.1x01.HDTV.XviD..avi 699.96 MB
  • La.Maldicion.De.Dark.Lake.1x02.HDTV.XviD..avi 699.94 MB
  • Release.nfo 9.9 KB

Description

Format : AVI Format/Info : Audio Video Interleave Format profile : OpenDML File size : 881 MiB Duration : 1h 49mn Overall bit rate : 1 714 Kbps Writing application : VirtualDubMod 1.5.10.2 (build 2542/release) Writing library : VirtualDubMod build 2542/release Original source form : MAX TORRENTZ Video ID : 0 Format : MPEG-4 Visual Format profile : AdvancedSimple@L5 Format settings, BVOP : Yes Format settings, QPel : No Format settings, GMC : No warppoints Format settings, Matrix : Default (H.263) Codec ID : XVID Codec ID/Hint : XviD Duration : 1h 49mn Bit rate : 1 325 Kbps Width : 640 pixels Height : 272 pixels Display aspect ratio : 2.35:1 Frame rate : 23.976 fps Resolution : 24 bits Colorimetry : 4:2:0 Scan type : Progressive Bits/(Pixel*Frame) : 0.318 Stream size : 881 MiB (77%) Writing library : XviD 61 Audio ID : 1 Format : AC-3 Format/Info : Audio Coding 3 Codec ID : 2000 Duration : 1h 49mn Bit rate mode : Constant Bit rate : 384 Kbps Channel(s) : 6 channels Channel positions : Front: L C R, Surround: L R, LFE Sampling rate : 48.0 KHz Stream size : 147 MiB (22%) Alignment : Aligned on interleaves Interleave, duration : 64 ms (1.54 video frames) Interleave, preload duration : 192 ms http://www.imdb.com/title/tt1605630/ American Reunion (2012) How To Get Your Maxspeed (uTorrent) Torrent Client - Preferences - Bandwidth - Number of connections - Set aprox. 500 for each Torrent Client - Preferences - BiTorrent - Protocol Encryption - Forced Bandwidth Allocation - High (Set download/upload limit - Unlimited) Stop Other Active Torrents - Start downloading and wait for connections. Enjoy and Seed for at least 1:1 ratio. Don't forget to say thanks/leave reviews. Before downloading you should check/google search sample "release name""sample". Greets to all actual/future p2p/scene QUALITY groups and affiliate websites. Don't trust IMDb robot or bad ratings,always watch some trailers first. Ignore stupid comments/fake/mislabeled/no-DVDrips/CAM/TS/RAR uploads. Please spread this release/torrent to your friends/forums/etc. If you need translation subs visit some subtitles sites. Report if you see online streaming or other spam links. Recommended movie player VLC PLAYER.

Full Description

Trackers

ID

Tracker

Seeds

Peers

Similar Files

Name

Size

Seeds

Peers

    No similar torrents found.

Comments (
0
)

It's better if you log in or register before you leave a comment.


Leave a Comment

To verify that you are a human, please fill in the captcha below.