Torrent File Download

The Big Bang Theory S05E21 HDTV XviD ASAP

The Big Bang Theory S05E21 HDTV XviD ASAP
Download direct - no client needed
Size
175 MB in files
Added
05-04-2012
Status
0 seeds 0 leechers
Downloads
0 downloads
Hash
694fd3d9f87d83ad5da410437a6db7640374f4b0
Rapidshare
This file may be available for download on rapidshare, megaupload, hotfile.
More
the big bang theory s05e21 torrents
Privacy
Avoid Lawsuits! Get Bittorrent Guardian.
Uploader
wisejackass
Rating
rating
Download Torrent The Big Bang Theory S05E21 HDTV XviD ASAP.torrent Magnet Download For Alternative Torrent Clients Download Direct The Big Bang Theory S05E21 HDTV XviD ASAP

Files

Name

Size

  • COG-642_IBM Cognos 10 BI Scorecard Developer.zip 206.74 KB
  • Open File Here.txt 459 B
  • README!!!.txt 757 B
  • README!!!/[ENG]READ ME - IMPORTANT.txt 459 B
  • README!!!/[ESP]LEA AQUÍ - IMPORTANTE.txt 506 B
  • README!!!/[FR] LIRE ICI - IMPORTANT.txt 419 B
  • README!!!/[GER]wichtig - lesen.txt 542 B
  • README!!!/[RUS]пАРОЛЬ - Читайте здесь - ВАЖНО(1).txt 437 B
  • The.Big.Bang.Theory.S05E21.HDTV.XviD.ASAP.rar 175 MB
  • Torrent Downloaded From ExtraTorrent.com.txt 353 B

Description

------------------------------------------------------------------- Please share....Dont hit and run...Seed it back at least once. Of course, if you want to seed it back more than once, that would be ok too :) ------------------------------------------------------------------- QUALITY: PERFECT 10/10 All details are here: Format | AVI Language | ENGLISH Source | DVD PAL Subs | NONE QUALITY: PERFECT 10/10 - Video ID : 0 Format : MPEG-4 Visual Format profile : Advanced Simple@L5 Format settings, BVOP : Yes Format settings, QPel : No Format settings, GMC : No warppoints Format settings, Matrix : Default (H.263) Muxing mode : Packed bitstream Codec ID : XVID Codec ID/Hint : XviD Bit rate : 1 345 Kbps Width : 720 pixels Height : 314 pixels Display aspect ratio : 2.25:1 Frame rate : 29.970 fps Color space : YUV Chroma subsampling : 4:2:0 Bit depth : 8 bits Scan type : Progressive Compression mode : Lossy Bits/(Pixel*Frame) : 0.198 Stream size : 1.19 GiB (87%) Writing library : XviD 1.1.0 (UTC 2005-11-22) - Audio ID : 1 Format : AC-3 Format/Info : Audio Coding 3 Mode extension : CM (complete main) Codec ID : 2000 Bit rate mode : Constant Bit rate : 192 Kbps Channel(s) : 2 channels Channel positions : Front: L R Sampling rate : 48.0 KHz Bit depth : 16 bits Compression mode : Lossy Stream size : 175 MiB (12%) Alignment : Aligned on interleaves Interleave, duration : 33 ms (1.00 video frame) Interleave, preload duration : 512 ms - Greets Greets to | X | Joshua08 | IMAGiNE | PrisM | DiGiTAL iNK | ------------------------------------------------------------------- Please share....Dont hit and run...Seed it back at least once. Of course, if you want to seed it back more than once, that would be ok too :) ------------------------------------------------------------------- ------------------------------------------------------------------- Please share....Dont hit and run...Seed it back at least once. Of course, if you want to seed it back more than once, that would be ok too :) ------------------------------------------------------------------- - Notes Im looking for anybody who Wants to Supply Direct or Line Audio. Pre Released R5s, Screeners, NTSC or PAL Pre Retail DVDs or Anything else Usefull

Full Description

Trackers

ID

Tracker

Seeds

Peers

Comments (
0
)

It's better if you log in or register before you leave a comment.


Leave a Comment

To verify that you are a human, please fill in the captcha below.