Torrent File Download

American Reunion (2012) DVDRip XviD-MAX

American Reunion (2012) DVDRip XviD-MAX
Download direct - no client needed
Size
1.2 GB in files
Added
25-03-2012
Status
0 seeds 0 leechers
Downloads
8 downloads
Hash
f5f3a06df854efb0cf308209c761c7fd350de5b1
Rapidshare
This file may be available for download on rapidshare, megaupload, hotfile.
More
american reunion 2012 torrents
Privacy
Avoid Lawsuits! Get Bittorrent Guardian.
Uploader
viralix
Rating
rating
Download Torrent American Reunion (2012) DVDRip XviD-MAX.torrent Magnet Download For Alternative Torrent Clients Download Direct American Reunion (2012) DVDRip XviD-MAX

Files

Name

Size

  • Read Me.txt 2.98 KB
  • WWE.Monday.Night.Raw.2012.04.02.HDTV.x264-RUDOS.mp4 1.14 GB

Description

Screenshots: http://shareimage.org/images/57vdlf4wvvnvky9gvr2.jpg http://shareimage.org/images/84i5qrh545zoapreegrm.jpg http://shareimage.org/images/aqg6kqyumvan0mi2wyt.jpg http://shareimage.org/images/f78jwr6kay6hwi5u8q1.jpg Alternative: http://img269.imageshack.us/img269/8494/vlcsnappic2hd.jpg http://img577.imageshack.us/img577/673/vlcsnappic3hd.jpg http://img685.imageshack.us/img685/3473/vlcsnappic4hd.jpg http://img812.imageshack.us/img812/7866/vlcsnappic5hd.jpg American Reunion (2012) DVDRip XviD-MAXSPEED Format : AVI Format/Info : Audio Video Interleave Format profile : OpenDML File size : 1.21 GiB Duration : 2h 16mn Overall bit rate : 1 714 Kbps Writing application : VirtualDubMod 1.5.10.2 (build 2542/release) Writing library : VirtualDubMod build 2542/release Original source form : MAX TORRENTZ Copyright : SIGISMUNT Video ID : 0 Format : MPEG-4 Visual Format profile : AdvancedSimple@L5 Format settings, BVOP : Yes Format settings, QPel : No Format settings, GMC : No warppoints Format settings, Matrix : Default (H.263) Codec ID : XVID Codec ID/Hint : XviD Duration : 2h 16mn Bit rate : 1 325 Kbps Width : 640 pixels Height : 272 pixels Display aspect ratio : 2.35:1 Frame rate : 23.976 fps Resolution : 24 bits Colorimetry : 4:2:0 Scan type : Progressive Bits/(Pixel*Frame) : 0.318 Stream size : 1.01 GiB (87%) Writing library : XviD 61 Audio ID : 1 Format : AC-3 Format/Info : Audio Coding 3 Codec ID : 2000 Duration : 2h 16mn Bit rate mode : Constant Bit rate : 384 Kbps Channel(s) : 6 channels Channel positions : Front: L C R, Surround: L R, LFE Sampling rate : 48.0 KHz Stream size : 300 MiB (22%) Alignment : Aligned on interleaves Interleave, duration : 64 ms (1.54 video frames) Interleave, preload duration : 196 ms Source: DVD (perfect a/v/sync quality,sample Not included) This torrent is not seedbox supported,please seed it to the MAX NOTE BE AWARE OF BOGUS SITES , FAKE FILES AND STUPID SPAMMERS DOWNLOAD ALWAYS YOUR MAX DATA FROM OUR SITE http://www.torentz.3xforum.rog/topic/4/MAX_TORRENTZ/ Recommended player for all our movies http://www.videolan.or/vlcHD/ REMEMBER: GOD DEMANDS LOVE,SEEDS,PEERS AND A FAIR TORRENT RATIO Copyright © WWW.TORENTZ.3XFORUM.RO

Full Description

Trackers

ID

Tracker

Seeds

Peers

Similar Files

Name

Size

Seeds

Peers

    No similar torrents found.

Comments (
0
)

It's better if you log in or register before you leave a comment.


Leave a Comment

To verify that you are a human, please fill in the captcha below.