Torrent File Download

Chaalis Chauraasi 2012 HINDI DVD-RIP XVID

Chaalis Chauraasi 2012 HINDI DVD-RIP XVID
Download direct - no client needed
Size
830 MB in files
Added
01-03-2012
Status
0 seeds 0 leechers
Downloads
3 downloads
Hash
9566328dd20cf93847c6f25fe4da4d9762795056
Rapidshare
This file may be available for download on rapidshare, megaupload, hotfile.
More
chaalis chauraasi 2012 torrents
Privacy
Avoid Lawsuits! Get Bittorrent Guardian.
Uploader
winterfresh
Rating
rating
Download Torrent Chaalis Chauraasi 2012 HINDI DVD-RIP XVID.torrent Magnet Download For Alternative Torrent Clients Download Direct Chaalis Chauraasi 2012 HINDI DVD-RIP XVID

Files

Name

Size

  • Cassie Young.wmv 125.16 MB

Description

Chaalis Chauraasi 2012 HINDI DVD-RIP XVID Directed By : Hriday Shetty Produced By : Sachin Awasthee, Uday Shetty, Anuya Mhaiskar Music Director : Lalit Pandit Cast : Naseeruddin Shah, Atul Kulkarni, Kay Kay Menon, Ravi Kishan, Shweta Bharadwaj, Rajesh Sharma, Zakir Hussain, Manoj Pahwa, Reetu Jain, Arbaaz Ali Khan, Yuri Suri Banner : Filament Glo (India) Pvt Ltd, MAASK Entertainment Pvt Ltd Genre : Comedy, Crime Release Date : January 13th 2012 Country: India Language: Hindi Format : AVI Format/Info : Audio Video Interleave Format profile : OpenDML Overall bit rate : 1 800 Kbps Writing application : VirtualDubMod 1.5.10.2 (build 2542/release) Writing library : VirtualDubMod build 2542/release Video ID : 0 Format : MPEG-4 Visual Format profile : AdvancedSimple@L5 Format settings, BVOP : Yes Format settings, QPel : No Format settings, GMC : No warppoints Format settings, Matrix : Default (MPEG) Codec ID : XVID Codec ID/Hint : XviD Bit rate : 1 411 Kbps Width : 640 pixels Height : 272 pixels Display aspect ratio : 2.35:1 Frame rate : 23.976 fps Resolution : 24 bits Colorimetry : 4:2:0 Scan type : Progressive Bits/(Pixel*Frame) : 0.338 Stream size : 1.03 GiB (78%) Writing library : XviD 64 Audio ID : 1 Format : AC-3 Format/Info : Audio Coding 3 Codec ID : 2000 Bit rate mode : Constant Bit rate : 384 Kbps Channel(s) : 6 channels Channel positions : Front: L C R, Surround: L R, LFE Sampling rate : 48.0 KHz Stream size : 287 MiB (21%) Alignment : Aligned on interleaves Interleave, duration : 64 ms (1.53 video frames) Interleave, preload duration : 192 ms

Full Description

Trackers

ID

Tracker

Seeds

Peers

Similar Files

Name

Size

Seeds

Peers

    No similar torrents found.

Comments (
0
)

It's better if you log in or register before you leave a comment.


Leave a Comment

To verify that you are a human, please fill in the captcha below.