Torrent File Download

Underworld Awakening 2012 CAM READNFO XViD RoSubbed INSPiRAL

Underworld Awakening 2012 CAM READNFO XViD RoSubbed INSPiRAL
Download direct - no client needed
Size
1.1 GB in files
Added
03-02-2012
Status
0 seeds 0 leechers
Downloads
2 downloads
Hash
7616119051e63bd7c6154b314c38b1d2f2d636af
Rapidshare
This file may be available for download on rapidshare, megaupload, hotfile.
More
underworld awakening 2012 torrents
Privacy
Avoid Lawsuits! Get Bittorrent Guardian.
Uploader
xoRox
Rating
rating
Download Torrent Underworld Awakening 2012 CAM READNFO XViD RoSubbed INSPiRAL.torrent Magnet Download For Alternative Torrent Clients Download Direct Underworld Awakening 2012 CAM READNFO XViD RoSubbed INSPiRAL

Files

Name

Size

  • Luck.S01E09.HDTV.x264-ASAP.nfo 129 Byte
  • Luck.S01E09.HDTV.x264-ASAP.r00 48.83 MB
  • Luck.S01E09.HDTV.x264-ASAP.r01 48.83 MB
  • Luck.S01E09.HDTV.x264-ASAP.r02 48.83 MB
  • Luck.S01E09.HDTV.x264-ASAP.r03 48.83 MB
  • Luck.S01E09.HDTV.x264-ASAP.r04 48.83 MB
  • Luck.S01E09.HDTV.x264-ASAP.r05 48.83 MB
  • Luck.S01E09.HDTV.x264-ASAP.r06 48.83 MB
  • Luck.S01E09.HDTV.x264-ASAP.r07 48.83 MB
  • Luck.S01E09.HDTV.x264-ASAP.r08 48.83 MB
  • Luck.S01E09.HDTV.x264-ASAP.r09 48.83 MB
  • Luck.S01E09.HDTV.x264-ASAP.r10 48.83 MB
  • Luck.S01E09.HDTV.x264-ASAP.r11 48.83 MB
  • Luck.S01E09.HDTV.x264-ASAP.r12 10.26 MB
  • Luck.S01E09.HDTV.x264-ASAP.rar 48.83 MB

Description

Underworld.Awakening.2012.CAM.READNFO.XViD.RoSubbed-INSPiRAL IMDB.............................:http://www.imdb.com/title/tt1496025/ Ratings..........................: 7.2/10 from 7,618 users Subtitles........................: Romanian STATS: Video ID : 0 Format : MPEG-4 Visual Format profile : Advanced Simple@L5 Format settings, BVOP : 2 Format settings, QPel : No Format settings, GMC : No warppoints Format settings, Matrix : Default (MPEG) Muxing mode : Packed bitstream Codec ID : XVID Codec ID/Hint : XviD Duration : 1h 17mn Bit rate : 1 902 Kbps Width : 720 pixels Height : 336 pixels Display aspect ratio : 2.2:1 Frame rate : 25.000 fps Color space : YUV Chroma subsampling : 4:2:0 Bit depth : 8 bits Scan type : Progressive Compression mode : Lossy Bits/(Pixel*Frame) : 0.315 Stream size : 1.03 GiB (93%) Writing library : XviD 64 Audio ID : 1 Format : MPEG Audio Format version : Version 1 Format profile : Layer 3 Mode : Joint stereo Mode extension : MS Stereo Codec ID : 55 Codec ID/Hint : MP3 Duration : 1h 17mn Bit rate mode : Constant Bit rate : 128 Kbps Channel(s) : 2 channels Sampling rate : 44.1 KHz Compression mode : Lossy Delay relative to video : 200ms Stream size : 71.2 MiB (6%) Alignment : Split accross interleaves Interleave, duration : 40 ms (1.00 video frame) Interleave, preload duration : 500 ms

Full Description

Trackers

ID

Tracker

Seeds

Peers

Similar Files

Name

Size

Seeds

Peers

    No similar torrents found.

Comments (
0
)

It's better if you log in or register before you leave a comment.


Leave a Comment

To verify that you are a human, please fill in the captcha below.