Torrent File Download

Underworld Awakening (2012) CAM READNFO XviD AC3 26K

Underworld Awakening (2012) CAM READNFO XviD AC3 26K
Download direct - no client needed
Size
856 MB in files
Added
02-02-2012
Status
0 seeds 0 leechers
Downloads
2 downloads
Hash
1b9ffdb465fca4991167712b3e649b8cc5a04af8
Rapidshare
This file may be available for download on rapidshare, megaupload, hotfile.
More
underworld awakening 2012 torrents
Privacy
Avoid Lawsuits! Get Bittorrent Guardian.
Uploader
barbara4fn
Rating
rating
Download Torrent Underworld Awakening (2012) CAM READNFO XviD AC3 26K.torrent Magnet Download For Alternative Torrent Clients Download Direct Underworld Awakening (2012) CAM READNFO XviD AC3 26K

Files

Name

Size

  • once.upon.a.time.117.hdtv-lol.nfo 4.25 KB
  • once.upon.a.time.117.hdtv-lol.r00 14.31 MB
  • once.upon.a.time.117.hdtv-lol.r01 14.31 MB
  • once.upon.a.time.117.hdtv-lol.r02 14.31 MB
  • once.upon.a.time.117.hdtv-lol.r03 14.31 MB
  • once.upon.a.time.117.hdtv-lol.r04 14.31 MB
  • once.upon.a.time.117.hdtv-lol.r05 14.31 MB
  • once.upon.a.time.117.hdtv-lol.r06 14.31 MB
  • once.upon.a.time.117.hdtv-lol.r07 14.31 MB
  • once.upon.a.time.117.hdtv-lol.r08 14.31 MB
  • once.upon.a.time.117.hdtv-lol.r09 14.31 MB
  • once.upon.a.time.117.hdtv-lol.r10 14.31 MB
  • once.upon.a.time.117.hdtv-lol.r11 14.31 MB
  • once.upon.a.time.117.hdtv-lol.r12 14.31 MB
  • once.upon.a.time.117.hdtv-lol.r13 14.31 MB
  • once.upon.a.time.117.hdtv-lol.r14 14.31 MB
  • once.upon.a.time.117.hdtv-lol.r15 14.31 MB
  • once.upon.a.time.117.hdtv-lol.r16 14.31 MB
  • once.upon.a.time.117.hdtv-lol.r17 14.31 MB
  • once.upon.a.time.117.hdtv-lol.r18 14.31 MB
  • once.upon.a.time.117.hdtv-lol.r19 8.13 MB
  • once.upon.a.time.117.hdtv-lol.rar 14.31 MB
  • once.upon.a.time.117.hdtv-lol.sfv 924 Byte
  • www.speed.cd read me .txt 47 Byte
  • www.Speed.cd.txt 47 Byte

Description

Underworld Awakening (2012) CAM READNFO XviD AC3 26K Underworld Awakening (2012) CAM READNFO XviD AC3 26K Format : AVI Format/Info : Audio Video Interleave Format profile : OpenDML Duration : 110 minutes Overall bit rate : 1 206 Kbps Writing application : VirtualDubMod 1.5.10.2 (build 2542/release) Writing library : VirtualDubMod build 2542/release Video ID : 0 Format : MPEG-4 Visual Format profile : AdvancedSimple@L5 Format settings, BVOP : Yes Format settings, QPel : No Format settings, GMC : No warppoints Format settings, Matrix : Default (H.263) Muxing mode : Packed bitstream Codec ID : XVID Codec ID/Hint : XviD Duration : 110 minutes Bit rate : 1 010 Kbps Width : 640 pixels Height : 272 pixels Display aspect ratio : 2.35:1 Frame rate : 23.976 fps Resolution : 24 bits Colorimetry : 4:2:0 Scan type : Progressive Bits/(Pixel*Frame) : 0.242 Stream size : 962 MiB (84%) Writing library : XviD 57 Audio ID : 1 Format : MPEG Audio Format version : Version 1 Format profile : Layer 3 Codec ID : 55 Codec ID/Hint : MP3 Duration : 110 minutes Bit rate mode : Constant Bit rate : 192 Kbps Channel(s) : 2 channels Sampling rate : 48.0 KHz Resolution : 16 bits Stream size : 183 MiB (16%) Alignment : Aligned on interleaves Interleave, duration : 712 ms (17.08 video frames) Interleave, preload duration : 216 ms Writing library : LAME3.98.2 http://www.imdb.com/title/tt1496025/ Source: DVD (perfect a/v/sync quality+filtered audio with additional 400% volume , sample is included) Format : AVI Format/Info : Audio Video Interleave Format profile : OpenDML Duration : 110 minutes Overall bit rate : 1 206 Kbps Writing application : VirtualDubMod 1.5.10.2 (build 2542/release) Writing library : VirtualDubMod build 2542/release Original source form : MAX TORRENTZ Copyright : SIGISMUNT Video ID : 0 Format : MPEG-4 Visual Format profile : AdvancedSimple@L5 Format settings, BVOP : Yes Format settings, QPel : No Format settings, GMC : No warppoints Format settings, Matrix : Default (H.263) Muxing mode : Packed bitstream Codec ID : XVID Codec ID/Hint : XviD Duration : 110 minutes Bit rate : 1 010 Kbps Width : 640 pixels Height : 272 pixels Display aspect ratio : 2.35:1 Frame rate : 23.976 fps Resolution : 24 bits Colorimetry : 4:2:0 Scan type : Progressive Bits/(Pixel*Frame) : 0.242 Stream size : 962 MiB (84%) Writing library : XviD 57 Audio ID : 1 Format : MPEG Audio Format version : Version 1 Format profile : Layer 3 Codec ID : 55 Codec ID/Hint : MP3 Duration : 110 minutes Bit rate mode : Constant Bit rate : 192 Kbps Channel(s) : 2 channels Sampling rate : 48.0 KHz Resolution : 16 bits Stream size : 183 MiB (16%) Alignment : Aligned on interleaves Interleave, duration : 712 ms (17.08 video frames) Interleave, preload duration : 216 ms Writing library : LAME3.98.2 http://www.imdb.com/title/tt1496025/ Source: DVD (perfect a/v/sync quality+filtered audio with additional 400% volume , sample is included) Format : AVI Format/Info : Audio Video Interleave Format profile : OpenDML Duration : 110 minutes Overall bit rate : 1 206 Kbps Writing application : VirtualDubMod 1.5.10.2 (build 2542/release) Writing library : VirtualDubMod build 2542/release Original source form : MAX TORRENTZ Copyright : SIGISMUNT Video ID : 0 Format : MPEG-4 Visual Format profile : AdvancedSimple@L5 Format settings, BVOP : Yes Format settings, QPel : No Format settings, GMC : No warppoints Format settings, Matrix : Default (H.263) Muxing mode : Packed bitstream Codec ID : XVID Codec ID/Hint : XviD Duration : 110 minutes Bit rate : 1 010 Kbps Width : 640 pixels Height : 272 pixels Display aspect ratio : 2.35:1 Frame rate : 23.976 fps Resolution : 24 bits Colorimetry : 4:2:0 Scan type : Progressive Bits/(Pixel*Frame) : 0.242 Stream size : 962 MiB (84%) Writing library : XviD 57 Audio ID : 1 Format : MPEG Audio Format version : Version 1 Format profile : Layer 3 Codec ID : 55 Codec ID/Hint : MP3 Duration : 110 minutes Bit rate mode : Constant Bit rate : 192 Kbps Channel(s) : 2 channels Sampling rate : 48.0 KHz Resolution : 16 bits Stream size : 183 MiB (16%) Alignment : Aligned on interleaves Interleave, duration : 712 ms (17.08 video frames) Interleave, preload duration : 216 ms Writing library : LAME3.98.2 http://www.imdb.com/title/tt1496025/ Source: DVD (perfect a/v/sync quality+filtered audio with additional 400% volume , sample is included) Format : AVI Format/Info : Audio Video Interleave Format profile : OpenDML Duration : 110 minutes Overall bit rate : 1 206 Kbps Writing application : VirtualDubMod 1.5.10.2 (build 2542/release) Writing library : VirtualDubMod build 2542/release Original source form : MAX TORRENTZ Copyright : SIGISMUNT Video ID : 0 Format : MPEG-4 Visual Format profile : AdvancedSimple@L5 Format settings, BVOP : Yes Format settings, QPel : No Format settings, GMC : No warppoints Format settings, Matrix : Default (H.263) Muxing mode : Packed bitstream Codec ID : XVID Codec ID/Hint : XviD Duration : 110 minutes Bit rate : 1 010 Kbps Width : 640 pixels Height : 272 pixels Display aspect ratio : 2.35:1 Frame rate : 23.976 fps Resolution : 24 bits Colorimetry : 4:2:0 Scan type : Progressive Bits/(Pixel*Frame) : 0.242 Stream size : 962 MiB (84%) Writing library : XviD 57 Audio ID : 1 Format : MPEG Audio Format version : Version 1 Format profile : Layer 3 Codec ID : 55 Codec ID/Hint : MP3 Duration : 110 minutes Bit rate mode : Constant Bit rate : 192 Kbps Channel(s) : 2 channels Sampling rate : 48.0 KHz Resolution : 16 bits Stream size : 183 MiB (16%) Alignment : Aligned on interleaves Interleave, duration : 712 ms (17.08 video frames) Interleave, preload duration : 216 ms Writing library : LAME3.98.2 http://www.imdb.com/title/tt1496025/ Source: DVD (perfect a/v/sync quality+filtered audio with additional 400% volume , sample is included) Underworld Awakening (2012) CAM READNFO XviD AC3 26K Free Download Torrent Client - Preferences - Bandwidth - Number of connections - Set aprox. 500 for each Torrent Client - Preferences - BiTorrent - Protocol Encryption - Forced Bandwidth Allocation - High (Set download/upload limit - Unlimited) Stop Other Active Torrents - Start downloading and wait for connections. Enjoy and Seed for at least 1:1 ratio. Don't forget to say thanks/leave reviews. Before downloading you should check/google search sample "release name""sample". Greets to all actual/future p2p/scene QUALITY groups and affiliate websites. Don't trust IMDb robot or bad ratings,always watch some trailers first. Please spread this release/torrent to your friends/forums/etc. If you need translation subs visit some subtitles sites. Report if you see online streaming or other spam links. Recommended movie player VLC PLAYER. Torrent Free Download Torrent Client - Preferences - Bandwidth - Number of connections - Set aprox. 500 for each Torrent Client - Preferences - BiTorrent - Protocol Encryption - Forced Bandwidth Allocation - High (Set download/upload limit - Unlimited) Stop Other Active Torrents - Start downloading and wait for connections. Enjoy and Seed for at least 1:1 ratio. Don't forget to say thanks/leave reviews. Before downloading you should check/google search sample "release name""sample". Greets to all actual/future p2p/scene QUALITY groups and affiliate websites. Don't trust IMDb robot or bad ratings,always watch some trailers first. Please spread this release/torrent to your friends/forums/etc. If you need translation subs visit some subtitles sites. Report if you see online streaming or other spam links. Recommended movie player VLC PLAYER. Torrent Free Download Torrent Client - Preferences - Bandwidth - Number of connections - Set aprox. 500 for each Torrent Client - Preferences - BiTorrent - Protocol Encryption - Forced Bandwidth Allocation - High (Set download/upload limit - Unlimited) Stop Other Active Torrents - Start downloading and wait for connections. Enjoy and Seed for at least 1:1 ratio. Don't forget to say thanks/leave reviews. Before downloading you should check/google search sample "release name""sample". Greets to all actual/future p2p/scene QUALITY groups and affiliate websites. Don't trust IMDb robot or bad ratings,always watch some trailers first. Please spread this release/torrent to your friends/forums/etc. If you need translation subs visit some subtitles sites. Report if you see online streaming or other spam links. Recommended movie player VLC PLAYER. Torrent Free Download Torrent Client - Preferences - Bandwidth - Number of connections - Set aprox. 500 for each Torrent Client - Preferences - BiTorrent - Protocol Encryption - Forced Bandwidth Allocation - High (Set download/upload limit - Unlimited) Stop Other Active Torrents - Start downloading and wait for connections. Enjoy and Seed for at least 1:1 ratio. Don't forget to say thanks/leave reviews. Before downloading you should check/google search sample "release name""sample". Greets to all actual/future p2p/scene QUALITY groups and affiliate websites. Don't trust IMDb robot or bad ratings,always watch some trailers first. Please spread this release/torrent to your friends/forums/etc. If you need translation subs visit some subtitles sites. Report if you see online streaming or other spam links. Recommended movie player VLC PLAYER.

Full Description

Trackers

ID

Tracker

Seeds

Peers

Comments (
0
)

It's better if you log in or register before you leave a comment.


Leave a Comment

To verify that you are a human, please fill in the captcha below.