Torrent File Download

Underworld Awakening 2012 DVDrip Crisp

Underworld Awakening 2012 DVDrip Crisp
Download direct - no client needed
Size
889.3 MB in files
Added
27-01-2012
Status
0 seeds 0 leechers
Downloads
84 downloads
Hash
81730fd5c5bdb971a596e88ab83a6daa383fed37
Rapidshare
This file may be available for download on rapidshare, megaupload, hotfile.
More
underworld awakening 2012 torrents
Privacy
Avoid Lawsuits! Get Bittorrent Guardian.
Uploader
dennison65
Rating
rating
Download Torrent Underworld Awakening 2012 DVDrip Crisp.torrent Magnet Download For Alternative Torrent Clients Download Direct Underworld Awakening 2012 DVDrip Crisp

Files

Name

Size

  • Subs[ENG].srt 133.49 KB
  • Wrath of the Titans (2012) 720P TS FULL LINE READNFO XviD 26K.avi 922.86 MB

Description

Format : AVI Format/Info : Audio Video Interleave Format profile : OpenDML Duration : 110 minutes Overall bit rate : 1 206 Kbps Writing application : VirtualDubMod 1.5.10.2 (build 2542/release) Writing library : VirtualDubMod build 2542/release Video ID : 0 Format : MPEG-4 Visual Format profile : AdvancedSimple@L5 Format settings, BVOP : Yes Format settings, QPel : No Format settings, GMC : No warppoints Format settings, Matrix : Default (H.263) Muxing mode : Packed bitstream Codec ID : XVID Codec ID/Hint : XviD Duration : 110 minutes Bit rate : 1 010 Kbps Width : 640 pixels Height : 272 pixels Display aspect ratio : 2.35:1 Frame rate : 23.976 fps Resolution : 24 bits Colorimetry : 4:2:0 Scan type : Progressive Bits/(Pixel*Frame) : 0.242 Stream size : 962 MiB (84%) Writing library : XviD 57 Audio ID : 1 Format : MPEG Audio Format version : Version 1 Format profile : Layer 3 Codec ID : 55 Codec ID/Hint : MP3 Duration : 110 minutes Bit rate mode : Constant Bit rate : 192 Kbps Channel(s) : 2 channels Sampling rate : 48.0 KHz Resolution : 16 bits Stream size : 183 MiB (16%) Alignment : Aligned on interleaves Interleave, duration : 712 ms (17.08 video frames) Interleave, preload duration : 216 ms Writing library : LAME3.98.2 Underworld: Awakening (2012) Source: DVD (perfect a/v/sync quality+filtered audio with additional 400% volume , sample is included) http://www.imdb.com/title/tt1496025/ Torrent Client - Preferences - Bandwidth - Number of connections - Set aprox. 500 for each Torrent Client - Preferences - BiTorrent - Protocol Encryption - Forced Bandwidth Allocation - High (Set download/upload limit - Unlimited) Stop Other Active Torrents - Start downloading and wait for connections. Enjoy and Seed for at least 1:1 ratio. Don't forget to say thanks/leave reviews. Before downloading you should check/google search sample "release name""sample". Greets to all actual/future p2p/scene QUALITY groups and affiliate websites. Don't trust IMDb robot or bad ratings,always watch some trailers first. Please spread this release/torrent to your friends/forums/etc. If you need translation subs visit some subtitles sites. Report if you see online streaming or other spam links. Recommended movie player VLC PLAYER.

Full Description

Trackers

ID

Tracker

Seeds

Peers

Comments (
0
)

It's better if you log in or register before you leave a comment.


Leave a Comment

To verify that you are a human, please fill in the captcha below.