Torrent File Download

Underworld Awakening 2012 CAM READNFO XviD AC3-26K

Underworld Awakening 2012 CAM READNFO XviD AC3-26K
Download direct - no client needed
Size
1.1 GB in files
Added
20-01-2012
Status
0 seeds 0 leechers
Downloads
93 downloads
Hash
03a9382718ac088008a179f0a21717805c96ff26
Rapidshare
This file may be available for download on rapidshare, megaupload, hotfile.
More
underworld awakening 2012 torrents
Privacy
Avoid Lawsuits! Get Bittorrent Guardian.
Uploader
Dec1ined
Rating
rating
Download Torrent Underworld Awakening 2012 CAM READNFO XviD AC3-26K.torrent Magnet Download For Alternative Torrent Clients Download Direct Underworld Awakening 2012 CAM READNFO XviD AC3-26K

Files

Name

Size

  • 01 Novio.mp3 4.84 MB
  • 02 James Bond Theme [Moby's Re-Version].mp3 6.2 MB
  • 03 Go.mp3 7.32 MB
  • 04 Ah-Ah.mp3 4.39 MB
  • 05 I Like to Score.mp3 4.31 MB
  • 06 Oil 1.mp3 8.9 MB
  • 07 New Dawn Fades.mp3 10.19 MB
  • 08 God Moving Over the Face of the Waters.mp3 10.52 MB
  • 09 First Cool Hive.mp3 10.42 MB
  • 10 Nash.mp3 2.53 MB
  • 11 Love Theme.mp3 8.44 MB
  • 12 Grace.mp3 9.9 MB

Description

Underworld Awakening 2012 CAM READNFO XviD AC3-26K [img]http://img207.imageshack.us/img207/3695/underworldawakening.png[/img] [code] Imdb: http://www.imdb.com/title/tt1496025/ Plot: When human forces discover the existence of the Vampire and Lycan clans, a war to eradicate both species commences. The vampire warrioress Selene leads the battle against humankind. Video ID : 0 Format : MPEG-4 Visual Format profile : Advanced Simple@L5 Format settings, BVOP : 2 Format settings, QPel : No Format settings, GMC : No warppoints Format settings, Matrix : Default (H.263) Codec ID : XVID Codec ID/Hint : XviD Duration : 1h 28mn Bit rate : 2 300 Kbps Width : 720 pixels Height : 304 pixels Display aspect ratio : 2.35:1 Frame rate : 25.000 fps Color space : YUV Chroma subsampling : 4:2:0 Bit depth : 8 bits Scan type : Progressive Compression mode : Lossy Bits/(Pixel*Frame) : 0.420 Stream size : 953 MiB (87%) Writing library : XviD 63 Audio ID : 1 Format : AC-3 Format/Info : Audio Coding 3 Mode extension : CM (complete main) Codec ID : 2000 Duration : 1h 28mn Bit rate mode : Constant Bit rate : 224 Kbps Channel(s) : 2 channels Channel positions : Front: L R Sampling rate : 44.1 KHz Bit depth : 16 bits Compression mode : Lossy Stream size : 145 MiB (13%) Alignment : Aligned on interleaves Interleave, duration : 40 ms (1.00 video frame [/code] Screens: [img]http://img14.imageshack.us/img14/8063/vlcsnap2012011519h17m17.png[/img] [img]http://img507.imageshack.us/img507/1511/vlcsnap2012011519h17m25.png[/img] [img]http://img714.imageshack.us/img714/7886/vlcsnap2012011519h17m40.png[/img] [img]http://img560.imageshack.us/img560/1168/vlcsnap2012011519h17m48.png[/img] [img]http://img713.imageshack.us/img713/9900/vlcsnap2012011519h17m54.png[/img] [img] [img]http://img851.imageshack.us/img851/5503/26ks.jpg[/img] Thank you smallz for banner!

Full Description

Trackers

ID

Tracker

Seeds

Peers

Comments (
0
)

It's better if you log in or register before you leave a comment.


Leave a Comment

To verify that you are a human, please fill in the captcha below.