Torrent File Download

Ma Première fois (2012) FRENCH TS XviD-MiSTERE

Ma Première fois (2012) FRENCH TS XviD-MiSTERE
Download direct - no client needed
Size
701.9 MB in files
Added
16-01-2012
Status
0 seeds 0 leechers
Downloads
22 downloads
Hash
9a696c5a68bd61a2d7825d645051de4d6c4bb52f
Rapidshare
This file may be available for download on rapidshare, megaupload, hotfile.
More
ma première fois 2012 torrents
Privacy
Avoid Lawsuits! Get Bittorrent Guardian.
Uploader
Sirmo
Rating
rating
Download Torrent Ma Première fois (2012) FRENCH TS XviD-MiSTERE.torrent Magnet Download For Alternative Torrent Clients Download Direct Ma Première fois (2012) FRENCH TS XviD-MiSTERE

Files

Name

Size

  • 01. Is It Too Late (Stefan Groll Acoustic Guitar Mix) - Thomas Lemmer (feat. Lena Belgart).mp3 6.44 MB
  • 02. There Must Be a Reason (Sensual Mix) - Simon Le Grec (feat. Denise Guttenbach).mp3 16.05 MB
  • 03. Wolf Richards - Sunrise in Rio.mp3 9.03 MB
  • 04. Secret Dancer - Michael E.mp3 11.04 MB
  • 05. Cafe au lait (Aqua Del Mar Edit) - Albert St.Barth.mp3 13.73 MB
  • 06. Scared Moments (Vox Mix) - Lazy Hammock.mp3 18 MB
  • 07. Sun trust - How Insensitive.mp3 5.34 MB
  • 08. My People (Balearic Island Edit) - Josephine Sinclar.mp3 12.78 MB
  • 09. Karma - Lazy Hammock.mp3 18.23 MB
  • 10. Our Dream (Buddha Spa Edit) - Smooth Deluxe.mp3 14.83 MB
  • 11. Balearic Waves (Hotel Sunshine Mix) - Claude Chagall.mp3 13.7 MB
  • 12. Goodbye (Pianochocolate Remix) - Marga Sol.mp3 10.16 MB
  • 13. Waves & Particles - Life Audience.mp3 17.18 MB
  • 14. Do You Remember - Simon Le Grec.mp3 18.62 MB
  • 15. Brahma vs Antarctica - Bobby Brazil .mp3 12.09 MB
  • 16. Pranayama - Yantra Mantra.mp3 14.21 MB
  • 17. A Blue Kind Sphere - Faro.mp3 11.64 MB
  • 18. Lost in Dreams - Lazy Hammock.mp3 12.38 MB
  • 19. Les vacances - Lemongrass.mp3 12.59 MB
  • 20. Unfinished Background - Art Demoir.mp3 12.01 MB

Description

Ma Première fois (2012) FRENCH TS XviD-MiSTERE Format: Xvid IDMB: http://www.imdb.com/title/tt2152779/ Audio : SUCKIT - Merci beaucoup :P ;) Video: RELIZLAB fichiers source - Merci également! ;) :P Date de sortie: 18 janvier 2012 (1h 35min) Réalisé par: Marie-Castille Mention-Schaar Avec: Esther Comar, Martin Cannavo, Vincent Perez plus Genre: Drame, Romance Nationalité: Français Synopsis: Zachary a 20 ans. Sombre et indépendant, il collectionne les conquêtes amoureuses et les échecs scolaires. Sarah a 18 ans. Première de la classe, fragile, elle comble ses manques affectifs grâce à une maîtrise parfaite de sa vie. Rien ne devrait les rapprocher et pourtant, l’année du bac, durant six mois, ils vont vivre un amour contre lequel on ne peut rien, le vrai, le grand, celui qui marque une vie pour toujours. Video ID : 0 Format : MPEG-4 Visual Format profile : Advanced Simple@L5 Format settings, BVOP : 2 Format settings, QPel : No Format settings, GMC : No warppoints Format settings, Matrix : Default (H.263) Codec ID : XVID Codec ID/Hint : XviD Duration : 1h 35min Bit rate : 1 349 Kbps Width : 720 pixels Height : 304 pixels Display aspect ratio : 2.35:1 Frame rate : 25.000 fps Color space : YUV Chroma subsampling : 4:2:0 Bit depth : 8 bits Scan type : Progressive Compression mode : Lossy Bits/(Pixel*Frame) : 0.247 Stream size : 1.08 GiB (91%) Audio ID : 1 Format : MPEG Audio Format version : Version 1 Format profile : Layer 3 Mode : Joint stereo Mode extension : MS Stereo Codec ID : 55 Codec ID/Hint : MP3 Duration : 1h 35min Bit rate mode : Constant Bit rate : 128 Kbps Channel(s) : 2 channels Sampling rate : 44.1 KHz Compression mode : Lossy Stream size : 105 MiB (9%) Alignment : Aligned on interleaves Interleave, duration : 40 ms (1.00 video frame) Writing library : LAME3.98r Encoding settings : -m j -V 4 -q 2 -lowpass 17 -b 128 Salutations à Tout Ceux qui font leur possible pour soutenir le P2P Et La Scène ;)

Full Description

Trackers

ID

Tracker

Seeds

Peers

Comments (
21
)

It's better if you log in or register before you leave a comment.

  • jessie89140
    - posted 2012-02-12 12:02:05

    merci...

  • doliii
    - posted 2012-04-05 22:04:52

    Win-rar me demande un mots de passe ? je suis nouvelle, je ne sais pas comment m'y prendre merci de votre aide

  • Guest
    - posted 2012-04-12 19:04:47

    winrar me demande un mot de pase S.V.P MERCI DE MES DONNE UN MOT DE PASSE

  • Guest
    - posted 2012-04-17 17:04:59

    winrar me demande le mot de passe s'il vous plait ?

  • Repolha
    - posted 2012-04-20 23:04:25

    Quel est le mot de passe? winrar me le demande. :| MERCI

  • Guest
    - posted 2012-04-26 23:04:21

    J'ai essayé 0000 (4 zéros) et ça marche. Bon film ! :)

  • Guest
    - posted 2012-04-27 11:04:22

    Les 4 zeros ne ca marche pas

  • Guest
    - posted 2012-04-27 11:04:22

    Les 4 zeros ne ca marche pas

  • Guest
    - posted 2012-04-29 14:04:49

    A ce que j'ai compris il faut aller sur http://bit.ly/A1Rcho et compléter une enquête pour avoir le mot de passe... Je n'ai pas accès au site dans mon pays, donc si quelqu'un le fait, merci de poster le mot de passe ;)

  • Guest
    - posted 2012-05-09 09:05:37

    merci beaucoup!

  • Guest
    - posted 2012-05-10 16:05:49

    impossible de récupérer le mot de passe! est ce que quelqu'un aurait la gentillesse de le donner ??

  • Guest
    - posted 2012-05-13 19:05:44

    l

  • Guest
    - posted 2012-05-14 17:05:51

    Pour ceux qui veulent le mot de passe meter des lettre au pif c'est ce que j'ai fais ca marche :)

  • Guest
    - posted 2012-05-14 21:05:04

    bonjour

  • emmagreen
    - posted 2012-05-15 09:05:41

    Bonjour, j'ai essayé les 4 zéros ça ne marche pas, et leur lien non plus... Quelqu'un aurait-il le mot de passe svp ? :/

  • Guest
    - posted 2012-05-17 17:05:45

    Le film fonctionne-t-il chez quelqu'un ??

  • Guest
    - posted 2012-05-29 15:05:56

    moi non plus j'arrive à debloquer le mot de passe

  • Guest
    - posted 2012-06-06 13:06:46

    grosses anarque a ne pas telecharger aucun mot passe pffffff

  • Guest
    - posted 2012-06-06 13:06:47

    grosses anarque a ne pas telecharger aucun mot passe pffffff

  • Guest
    - posted 2012-10-14 12:10:18

    ok

  • Guest
    - posted 2012-10-23 16:10:51

    j'arrive pas à debloquer le mot de passe ...!!!!!!!!!!!!!!


Leave a Comment

To verify that you are a human, please fill in the captcha below.