Torrent File Download

Underworld Awakening 2012 DVDRip XviD-MAXSPEED

Underworld Awakening 2012 DVDRip XviD-MAXSPEED
Download direct - no client needed
Size
848 MB in files
Added
13-01-2012
Status
0 seeds 0 leechers
Downloads
103 downloads
Hash
ce36a316c2d378af823b1a76e62f9de2d1404cd2
Rapidshare
This file may be available for download on rapidshare, megaupload, hotfile.
More
underworld awakening 2012 torrents
Privacy
Avoid Lawsuits! Get Bittorrent Guardian.
Uploader
tubbies86
Rating
rating
Download Torrent Underworld Awakening 2012 DVDRip XviD-MAXSPEED.torrent Magnet Download For Alternative Torrent Clients Download Direct Underworld Awakening 2012 DVDRip XviD-MAXSPEED

Files

Name

Size

  • Rage Maker Image Pack 11.12.23.msi 20.87 MB
  • Rage Maker Installer 3.1.msi 2.94 MB

Description

Underworld Awakening 2012 DVDRip XviD-MAXSPEED Format : AVI Format/Info : Audio Video Interleave Format profile : OpenDML Duration : 110 minutes Overall bit rate : 1 206 Kbps Writing application : VirtualDubMod 1.5.10.2 (build 2542/release) Writing library : VirtualDubMod build 2542/release Video ID : 0 Format : MPEG-4 Visual Format profile : AdvancedSimple@L5 Format settings, BVOP : Yes Format settings, QPel : No Format settings, GMC : No warppoints Format settings, Matrix : Default (H.263) Muxing mode : Packed bitstream Codec ID : XVID Codec ID/Hint : XviD Duration : 110 minutes Bit rate : 1 010 Kbps Width : 640 pixels Height : 272 pixels Display aspect ratio : 2.35:1 Frame rate : 23.976 fps Resolution : 24 bits Colorimetry : 4:2:0 Scan type : Progressive Bits/(Pixel*Frame) : 0.242 Stream size : 962 MiB (84%) Writing library : XviD 57 Audio ID : 1 Format : MPEG Audio Format version : Version 1 Format profile : Layer 3 Codec ID : 55 Codec ID/Hint : MP3 Duration : 110 minutes Bit rate mode : Constant Bit rate : 192 Kbps Channel(s) : 2 channels Sampling rate : 48.0 KHz Resolution : 16 bits Stream size : 183 MiB (16%) Alignment : Aligned on interleaves Interleave, duration : 712 ms (17.08 video frames) Interleave, preload duration : 216 ms Writing library : LAME3.98.2 http://www.imdb.com/title/tt1496025/ Source: DVD (perfect a/v/sync quality+filtered audio with additional 400% volume , sample is included) How To Get Your Maxspeed (uTorrent) Torrent Client - Preferences - Bandwidth - Number of connections - Set aprox. 500 for each Torrent Client - Preferences - BiTorrent - Protocol Encryption - Forced Bandwidth Allocation - High (Set download/upload limit - Unlimited) Stop Other Active Torrents - Enjoy and Seed at least 1:1 ratio

Full Description

Trackers

ID

Tracker

Seeds

Peers

Similar Files

Name

Size

Seeds

Peers

    No similar torrents found.

Comments (
0
)

It's better if you log in or register before you leave a comment.


Leave a Comment

To verify that you are a human, please fill in the captcha below.