Torrent File Download

Mission Impossible - Ghost Protocol (2011) DVDSCR XviD-REFiLL

Mission Impossible - Ghost Protocol (2011) DVDSCR XviD-REFiLL
Download direct - no client needed
Size
45.2 MB in files
Added
02-01-2012
Status
0 seeds 0 leechers
Downloads
10 downloads
Hash
be4b5918adb09c0d6872bb9060cca942a33b2656
Mirror
Get this torrent from a torrent mirror.
More
mission impossible ghost protocol 2011 torrents
Privacy
Avoid Lawsuits! Get Bittorrent Guardian.
Uploader
shanmikel
Rating
rating
Magnet Download For Alternative Torrent Clients Download Direct Mission Impossible - Ghost Protocol (2011) DVDSCR XviD-REFiLL

Files

Name

Size

  • E-Cookbooks.pdf 435.22 KB

Description

******************************************************************************* Mission Impossible - Ghost Protocol (2011) DVDSCR XviD-REFiLL ******************************************************************************* ------------------------------------------------------------------------------- General Information ------------------------------------------------------------------------------- Format : AVI Format/Info : Audio Video Interleave File size : 1.85 GiB Duration : 2h 19mn Overall bit rate : 1 892 Kbps Video ID : 0 Format : MPEG-4 Visual Format profile : Advanced Simple@L5 Format settings, BVOP : Yes Format settings, QPel : No Format settings, GMC : No warppoints Format settings, Matrix : Default (H.263) Muxing mode : Packed bitstream Codec ID : XVID Codec ID/Hint : XviD Duration : 2h 19mn Bit rate : 1 500 Kbps Width : 720 pixels Height : 304 pixels Display aspect ratio : 2.35:1 Frame rate : 23.976 fps Color space : YUV Chroma subsampling : 4:2:0 Bit depth : 8 bits Scan type : Progressive Bits/(Pixel*Frame) : 0.286 Stream size : 1.47 GiB (79%) Writing library : XviD 1.2.1 (UTC 2008-12-04) Audio ID : 1 Format : AC-3 Format/Info : Audio Coding 3 Mode extension : CM (complete main) Codec ID : 2000 Duration : 2h 19mn Bit rate mode : Constant Bit rate : 384 Kbps Channel(s) : 6 channels Channel positions : Front: L C R, Side: L R, LFE Sampling rate : 48.0 KHz Bit depth : 16 bits Stream size : 384 MiB (20%) Alignment : Aligned on interleaves Interleave, duration : 64 ms (1.53 video frames) Interleave, preload duration : 192 ms Video Source: Warrior [2011] DVD SCREENER MKV AC3 c00kies.....thanks Audio Source: Warrior [2011] DVD SCREENER MKV AC3 c00kies.....thanks Greets: DarkScene,HDScene,Noir,CrEwSaDe,blackjesus,ViSiON,HDLiTE,BTVRG,Twentyforty,UnKnOwN, FLAWL3SS,Rx,Relizlab,MiSTERE,ILLUMiNATI,SAFCuk009,HiVE-CM8..... and everybody else we respect.. u know who u are ------------------------------------------------------------------------------- Post Information ------------------------------------------------------------------------------- Have sumthing to offer..looking for suppliers... cammers,cams,screeners, audio supplier.. and any pre retail DVD/BR any RC... ------------------------------------------------------------------------------- Release Notes ------------------------------------------------------------------------------- source was nice.. does have a watermark every once in a while.... Slight RGB adjustment, denoise, and sharpen...then upmixed the 2 chan AC3 to higher bitrate 5.1 AC3.....enjoy

Full Description

Trackers

ID

Tracker

Seeds

Peers

Comments (
0
)

It's better if you log in or register before you leave a comment.


Leave a Comment

To verify that you are a human, please fill in the captcha below.