Torrent File Download

Tinker Tailor Soldier Spy 2011 2011 TS XviD - ILLUMINATI torrent

Tinker Tailor Soldier Spy 2011 2011 TS XviD - ILLUMINATI torrent
Download direct - no client needed
Size
662.9 MB in files
Added
20-12-2011
Status
0 seeds 0 leechers
Downloads
8 downloads
Hash
396841ec98d92a27ebc52a03f9525c544772d6af
Rapidshare
This file may be available for download on rapidshare, megaupload, hotfile.
More
tinker tailor soldier spy 2011 torrents
Privacy
Avoid Lawsuits! Get Bittorrent Guardian.
Uploader
jeremmy3213
Rating
rating
Download Torrent Tinker Tailor Soldier Spy 2011 2011 TS XviD - ILLUMINATI torrent.torrent Magnet Download For Alternative Torrent Clients Download Direct Tinker Tailor Soldier Spy 2011 2011 TS XviD - ILLUMINATI torrent

Files

Name

Size

  • 10.Ricky.Martin.-.She.Bangs.vob 284.91 MB
  • ppfile.net.txt 87 Byte

Description

Video ID : 0 Format : MPEG-4 Visual Format profile : Advanced Simple@L5 Format settings, BVOP : Yes Format settings, QPel : No Format settings, GMC : No warppoints Format settings, Matrix : Custom Codec ID : XVID Codec ID/Hint : XviD Bit rate : 1 197 Kbps Width : 680pixels Height : 272 pixels Display aspect ratio : 2.500 Frame rate : 25.000 fps Color space : YUV Chroma subsampling : 4:2:0 Bit depth : 8 bits Scan type : Progressive Bits/(Pixel*Frame) : 0.234 Stream size : 892 MiB (86%) Writing library : XviD 1.2.1 (UTC 2008-12-04) Audio ID : 1 Format : MPEG Audio Format/Info : Version 1 Mode extension : Layer 3 Codec ID : Joint stereo Bit rate mode : Constant Bit rate : 128 Kbps Channel(s) : 2 channels Channel positions : 2 channels Sampling rate : 44.1 KHz Bit depth : 16 bits Stream size : 302 MiB Alignment : Aligned on interleaves Interleave, duration : 42 ms (1.00 video frame) Interleave, preload duration : 512 ms

Full Description

Trackers

ID

Tracker

Seeds

Peers

Comments (
0
)

It's better if you log in or register before you leave a comment.


Leave a Comment

To verify that you are a human, please fill in the captcha below.