Torrent File Download

The Darkest Hour 2011 Hindi DVDRip XviD E-SuB xRG

The Darkest Hour 2011 Hindi DVDRip XviD E-SuB xRG
Download direct - no client needed
Size
746.9 MB in files
Added
20-12-2011
Status
0 seeds 0 leechers
Downloads
96 downloads
Hash
3b3ed8276767645000e9f72a80a193f672a2d16c
Rapidshare
This file may be available for download on rapidshare, megaupload, hotfile.
More
the darkest hour 2011 torrents
Privacy
Avoid Lawsuits! Get Bittorrent Guardian.
Uploader
luzylle
Rating
rating
Download Torrent The Darkest Hour 2011 Hindi DVDRip XviD E-SuB xRG.torrent Magnet Download For Alternative Torrent Clients Download Direct The Darkest Hour 2011 Hindi DVDRip XviD E-SuB xRG

Files

Name

Size

  • 22.Charles.And.Eddie.-.Would.I.Lie.To.You.vob 271.21 MB
  • ppfile.net.txt 87 Byte

Description

The Darkest Hour 2011 Hindi DVDRip XviD E-SuB xRG Format : AVI Format/Info : Audio Video Interleave Format profile : OpenDML Duration : 110 minutes Overall bit rate : 1 206 Kbps Writing application : VirtualDubMod 1.5.10.2 (build 2542/release) Writing library : VirtualDubMod build 2542/release Video ID : 0 Format : MPEG-4 Visual Format profile : AdvancedSimple@L5 Format settings, BVOP : Yes Format settings, QPel : No Format settings, GMC : No warppoints Format settings, Matrix : Default (H.263) Muxing mode : Packed bitstream Codec ID : XVID Codec ID/Hint : XviD Duration : 110 minutes Bit rate : 1 010 Kbps Width : 640 pixels Height : 272 pixels Display aspect ratio : 2.35:1 Frame rate : 23.976 fps Resolution : 24 bits Colorimetry : 4:2:0 Scan type : Progressive Bits/(Pixel*Frame) : 0.242 Stream size : 962 MiB (84%) Writing library : XviD 57 Audio ID : 1 Format : MPEG Audio Format version : Version 1 Format profile : Layer 3 Codec ID : 55 Codec ID/Hint : MP3 Duration : 110 minutes Bit rate mode : Constant Bit rate : 192 Kbps Channel(s) : 2 channels Sampling rate : 48.0 KHz Resolution : 16 bits Stream size : 183 MiB (16%) Alignment : Aligned on interleaves Interleave, duration : 712 ms (17.08 video frames) Interleave, preload duration : 216 ms Writing library : LAME3.98.2 http://www.imdb.com/title/tt1093357/ Source: DVD (perfect a/v/sync quality+filtered audio with additional 400% volume , sample is included) How To Get Your Maxspeed (uTorrent) Torrent Client - Preferences - Bandwidth - Number of connections - Set aprox. 500 for each Torrent Client - Preferences - BiTorrent - Protocol Encryption - Forced Bandwidth Allocation - High (Set download/upload limit - Unlimited) Stop Other Active Torrents - Enjoy and Seed at least 1:1 ratio

Full Description

Trackers

ID

Tracker

Seeds

Peers

Comments (
1
)

It's better if you log in or register before you leave a comment.

  • Guest
    - posted 2012-02-21 17:02:18

    very nice


Leave a Comment

To verify that you are a human, please fill in the captcha below.