Torrent File Download

Crocodile

Crocodile
Download direct - no client needed
Size
460 MB in files
Added
28-03-2010
Status
0 seeds 0 leechers
Downloads
12 downloads
Hash
b8b7329d47d8d4b6cae811d82140222cd9bdf00f
Rapidshare
This file may be available for download on rapidshare, megaupload, hotfile.
More
crocodile torrents
Privacy
Avoid Lawsuits! Get Bittorrent Guardian.
Uploader
Unknown
Rating
rating
Download Torrent Crocodile.torrent Magnet Download For Alternative Torrent Clients Download Direct Crocodile

Files

Name

Size

  • Crocodile.avi 460 MB
  • Crocodile.txt 2.8 KB

Description

A group of friends including Brady Turner, Claire and Duncan McKay go out on a boat trip on a lake in Southern California, but their joyful weekend turns into horror, when a giant killer crocodile searching for its stolen eggs, picks off anyone who gets in its way. Can they all escape in one piece or will they slowly and painfully fall to the mammoth reptile. Format : AVI Format/Info : Audio Video Interleave File size : 460 MiB Duration : 1h 30mn Overall bit rate : 712 Kbps Writing application : MEncoder SVN-r29318(20090522-gcc4.3.3) Writing library : MPlayer Video ID : 0 Format : AVC Format/Info : Advanced Video Codec Format profile : Main@L3.0 Format settings, CABAC : Yes Format settings, ReFrames : 1 frame Codec ID : h264 Duration : 1h 30mn Bit rate : 572 Kbps Nominal bit rate : 576 Kbps Width : 480 pixels Height : 360 pixels Display aspect ratio : 1.000 Frame rate : 25.000 fps Resolution : 8 bits Colorimetry : 4:2:0 Scan type : Progressive Bits/(Pixel*Frame) : 0.132 Stream size : 369 MiB (80%) Writing library : x264 core 67 r1154+12 7c56c0f Encoding settings : cabac=1 / ref=1 / deblock=1:0:0 / analyse=0x1:0x111 / me=hex / subme=6 / psy_rd=1.0:0.0 / mixed_ref=0 / me_range=16 / chroma_me=1 / trellis=0 / 8x8dct=0 / cqm=0 / deadzone=21,11 / chroma_qp_offset=-2 / threads=6 / nr=0 / decimate=1 / mbaff=0 / bframes=0 / keyint=250 / keyint_min=25 / scenecut=40 / rc=abr / bitrate=576 / ratetol=1.0 / qcomp=0.60 / qpmin=10 / qpmax=51 / qpstep=4 / ip_ratio=1.40 / aq=1:1.00 Audio ID : 1 Format : MPEG Audio Format version : Version 1 Format profile : Layer 3 Mode : Joint stereo Format_Settings_ModeExtension : MS Stereo Codec ID : 55 Codec ID/Hint : MP3 Duration : 1h 30mn Bit rate mode : Constant Bit rate : 128 Kbps Channel(s) : 2 channels Sampling rate : 44.1 KHz Stream size : 82.7 MiB (18%) Alignment : Aligned on interleaves Interleave, duration : 26 ms (0.65 video frame) Interleave, preload duration : 522 ms

Full Description

Trackers

ID

Tracker

Seeds

Peers

Comments (
0
)

It's better if you log in or register before you leave a comment.


Leave a Comment

To verify that you are a human, please fill in the captcha below.