Torrent File Download

Tinker Tailor Soldier Spy 2011 DvDrip Eng aXXo

Tinker Tailor Soldier Spy 2011 DvDrip Eng aXXo
Download direct - no client needed
Size
843 MB in files
Added
17-10-2011
Status
0 seeds 0 leechers
Downloads
0 downloads
Hash
d9ec08f67aa97ff66c6020f02e6f512bf7520a3e
Rapidshare
This file may be available for download on rapidshare, megaupload, hotfile.
More
tinker tailor soldier spy 2011 torrents
Privacy
Avoid Lawsuits! Get Bittorrent Guardian.
Uploader
MitZepxRaTeD
Rating
rating
Download Torrent Tinker Tailor Soldier Spy 2011 DvDrip Eng aXXo.torrent Magnet Download For Alternative Torrent Clients Download Direct Tinker Tailor Soldier Spy 2011 DvDrip Eng aXXo

Files

Name

Size

  • Footloose.TS.XviD.DTRG.rar 1.4 GB

Description

Tinker Tailor Soldier Spy 2011 DvDrip Eng aXXo Format : AVI Format/Info : Audio Video Interleave Format profile : OpenDML Duration : 110 minutes Overall bit rate : 1 206 Kbps Writing application : VirtualDubMod 1.5.10.2 (build 2542/release) Writing library : VirtualDubMod build 2542/release Original source form : MAX TORRENTZ Copyright : SIGISMUNT Video ID : 0 Format : MPEG-4 Visual Format profile : AdvancedSimple@L5 Format settings, BVOP : Yes Format settings, QPel : No Format settings, GMC : No warppoints Format settings, Matrix : Default (H.263) Muxing mode : Packed bitstream Codec ID : XVID Codec ID/Hint : XviD Duration : 110 minutes Bit rate : 1 010 Kbps Width : 640 pixels Height : 272 pixels Display aspect ratio : 2.35:1 Frame rate : 23.976 fps Resolution : 24 bits Colorimetry : 4:2:0 Scan type : Progressive Bits/(Pixel*Frame) : 0.242 Stream size : 962 MiB (84%) Writing library : XviD 57 Audio ID : 1 Format : MPEG Audio Format version : Version 1 Format profile : Layer 3 Codec ID : 55 Codec ID/Hint : MP3 Duration : 110 minutes Bit rate mode : Constant Bit rate : 192 Kbps Channel(s) : 2 channels Sampling rate : 48.0 KHz Resolution : 16 bits Stream size : 183 MiB (16%) Alignment : Aligned on interleaves Interleave, duration : 712 ms (17.08 video frames) Interleave, preload duration : 216 ms Writing library : LAME3.98.2 Source: DVD (perfect a/v/sync quality+filtered audio with additional 400% volume , sample is included) Tinker Tailor Soldier Spy 2011 DvDrip Eng aXXo Torrent Free Download Torrent Client - Preferences - Bandwidth - Number of connections - Set aprox. 500 for each Torrent Client - Preferences - BiTorrent - Protocol Encryption - Forced Bandwidth Allocation - High (Set download/upload limit - Unlimited) Stop Other Active Torrents - Start downloading and wait for connections. Enjoy and Seed for at least 1:1 ratio. Don't forget to say thanks/leave reviews. Before downloading you should check/google search sample "release name""sample". Greets to all actual/future p2p/scene QUALITY groups and affiliate websites. Don't trust IMDb robot or bad ratings,always watch some trailers first. Please spread this release/torrent to your friends/forums/etc. If you need translation subs visit some subtitles sites. Report if you see online streaming or other spam links. Recommended movie player VLC PLAYER.

Full Description

Trackers

ID

Tracker

Seeds

Peers

Comments (
1
)

It's better if you log in or register before you leave a comment.

  • Guest
    - posted 2011-11-05 17:11:52

    codec error - file wont open


Leave a Comment

To verify that you are a human, please fill in the captcha below.