Torrent File Download

One for the Money 2011 UNRATED DVDRip XviD-AMIABLE

One for the Money 2011 UNRATED DVDRip XviD-AMIABLE
Download direct - no client needed
Size
776.3 MB in files
Added
07-08-2011
Status
0 seeds 0 leechers
Downloads
6 downloads
Hash
379e570426183356b512a7d630c8fd2c37fbf294
Rapidshare
This file may be available for download on rapidshare, megaupload, hotfile.
More
one for the money 2011 torrents
Privacy
Avoid Lawsuits! Get Bittorrent Guardian.
Uploader
dfgdhgh
Rating
rating
Download Torrent One for the Money 2011 UNRATED DVDRip XviD-AMIABLE.torrent Magnet Download For Alternative Torrent Clients Download Direct One for the Money 2011 UNRATED DVDRip XviD-AMIABLE

Files

Name

Size

  • The Magic School Bus 22-26.dmg 3.89 GB

Description

Format : AVI Format/Info : Audio Video Inerleave Format profile : OpenDML File size : 1.36 GiB Duration : 1h 33mn Overall bit rate : 2 093 Kbps Writing application : VirtualDubMod 1.5.10.2 (build 2542/release) Writing library : VirtualDubMod build 2542/release Original source form : MAX TORRENTZ Copyright : SIGISMUNT Video ID : 0 Format : MPEG-4 Visual Format profile : AdvancedSimple@L5 Format settings, BVOP : Yes Format settings, QPel : No Format settings, GMC : No warppoints Format settings, Matrix : Default (H.263) Codec ID : XVID Codec ID/Hint : XviD Duration : 1h 33mn Bit rate : 1 897 Kbps Width : 720 pixels Height : 400 pixels Display aspect ratio : 16:9 Frame rate : 23.976 fps Resolution : 24 bits Colorimetry : 4:2:0 Scan type : Progressive Bits/(Pixel*Frame) : 0.275 Stream size : 1.23 GiB (91%) Writing library : XviD 1.2.1 (UTC 2008-12-04) Audio ID : 1 Format : MPEG Audio Format version : Version 1 Format profile : Layer 2 Codec ID : 50 Codec ID/Hint : MP1 Duration : 1h 33mn Bit rate mode : Constant Bit rate : 192 Kbps Channel(s) : 2 channels Sampling rate : 48.0 KHz Resolution : 16 bits Stream size : 128 MiB (9%) Alignment : Aligned on interleaves Interleave, duration : 436 ms (10.45 video frames) Interleave, preload duration : 216 ms http://thepiratebay.org/user/extremezone/0/7 How To Get Your Maxspeed (uTorrent) Torrent Client - Preferences - Bandwidth - Number of connections - Set aprox. 500 for each Torrent Client - Preferences - BiTorrent - Protocol Encryption - Forced Bandwidth Allocation - High (Set download/upload limit - Unlimited) Stop Other Active Torrents - Start downloading and wait for connections. Enjoy and Seed for at least 1:1 ratio. Don't forget to say thanks/leave reviews. Before downloading you should check/google search sample "release name""sample". Greets to all actual/future p2p/scene QUALITY groups and affiliate websites. Don't trust IMDb robot or bad ratings,always watch some trailers first. Ignore stupid comments/fake/mislabeled/no-DVDrips/CAM/TS/RAR uploads. Please spread this release/torrent to your friends/forums/etc. If you need translation subs visit some subtitles sites. Report if you see online streaming or other spam links. Recommended movie player VLC PLAYER.

Full Description

Trackers

ID

Tracker

Seeds

Peers

Comments (
0
)

It's better if you log in or register before you leave a comment.


Leave a Comment

To verify that you are a human, please fill in the captcha below.