Torrent File Download

Bubble Guppies (season 1) (1-14)

Bubble Guppies (season 1) (1-14)
Download direct - no client needed
Size
3.2 GB in files
Added
21-05-2011
Status
0 seeds 0 leechers
Downloads
42 downloads
Hash
01581f438f36af0101a2958b6554ab87796290ac
Rapidshare
This file may be available for download on rapidshare, megaupload, hotfile.
More
bubble guppies season 1 1 14 torrents
Privacy
Avoid Lawsuits! Get Bittorrent Guardian.
Uploader
Unknown
Rating
rating
Download Torrent Bubble Guppies (season 1) (1-14).torrent Magnet Download For Alternative Torrent Clients Download Direct Bubble Guppies (season 1) (1-14)

Files

Name

Size

  • bubble guppies - 1x01 - call a clambulance.avi 233.02 MB
  • bubble guppies - 1x02 - the crayon prix.avi 232.86 MB
  • bubble guppies - 1x03 - bubble puppy.avi 233.02 MB
  • bubble guppies - 1x04 - build me a building.avi 233.02 MB
  • bubble guppies - 1x05 - ducks in a row.avi 233.02 MB
  • bubble guppies - 1x06 - the grumpfish special.avi 233.02 MB
  • bubble guppies - 1x07 - the moon rocks.avi 233.02 MB
  • bubble guppies - 1x08 - who's gonna play the big bad wolf.avi 233.02 MB
  • bubble guppies - 1x09 - we totally rock.avi 233.02 MB
  • bubble guppies - 1x10 - fishketball.avi 233.02 MB
  • bubble guppies - 1x11 - the legend of pinkfoot.avi 233.02 MB
  • bubble guppies - 1x12 - gup, gup and away.avi 233.02 MB
  • bubble guppies - 1x13 - the spring chicken is coming.avi 232.99 MB
  • bubble guppies - 1x14 - boy meets squirrel.avi 233.02 MB
  • Torrent downloaded from Demonoid.me.txt 46 Byte

Description

Bubble Guppies 2011- Season 01 (eps. 1-14) Bubble Guppies is an American preschool children&#39;s television series produced for Nickelodeon and created by Jonny Belt and Robert Scull.[1] The series revolves around the underwater adventures of a group of mermaid-like preschoolers.The program premiered on January 24, 2011 <a href=" http://www.imdb.com/title/tt0965404/" rel="nofollow"> http://www.imdb.com/title/tt0965404/</a> General Episode INFO Format : AVI Format/Info : Audio Video Interleave File size : 130 MiB Duration : 22mn 34s Overall bit rate : 804 Kbps Writing application : VirtualDubMod 1.5.4.1 (build 2178/release) Writing library : VirtualDubMod build 2178/release Video ID : 0 Format : MPEG-4 Visual Format profile : Advanced Simple@L5 Format settings, BVOP : 1 Format settings, QPel : No Format settings, GMC : No warppoints Format settings, Matrix : Custom Codec ID : XVID Codec ID/Hint : XviD Duration : 22mn 34s Bit rate : 686 Kbps Width : 432 pixels Height : 320 pixels Display aspect ratio : 4:3 Frame rate : 23.976 fps Color space : YUV Chroma subsampling : 4:2:0 Bit depth : 8 bits Scan type : Progressive Compression mode : Lossy Bits/(Pixel*Frame) : 0.207 Stream size : 111 MiB (85%) Writing library : XviD 1.2.0.dev47 (UTC 2006-11-01) Audio ID : 1 Format : MPEG Audio Format version : Version 1 Format profile : Layer 3 Mode : Joint stereo Mode extension : MS Stereo Codec ID : 55 Codec ID/Hint : MP3 Duration : 22mn 34s Bit rate mode : Variable Bit rate : 105 Kbps Nominal bit rate : 128 Kbps Channel(s) : 2 channels Sampling rate : 48.0 KHz Compression mode : Lossy Stream size : 16.9 MiB (13%) Alignment : Aligned on interleaves Interleave, duration : 24 ms (0.58 video frame) Interleave, preload duration : 513 ms Writing library : LAME3.97

Full Description

Trackers

ID

Tracker

Seeds

Peers

Similar Files

Name

Size

Seeds

Peers

    No similar torrents found.

Comments (
3
)

It's better if you log in or register before you leave a comment.

  • Guest
    - posted 2013-01-24 21:01:04

    muy bueno

  • Guest
    - posted 2013-08-05 22:08:29

    Very good site.

  • Guest
    - posted 2014-03-29 07:03:02

    I really hope this works


Leave a Comment

To verify that you are a human, please fill in the captcha below.